Zindagi Kitni Haseen Hay (2016) Urdu Movie 480p HDRip [300MB] | A un coeur sincère | Marcella
 


 

DNS SERVER AENDERNum der staatlichen Zensur zu umgehen. Sollten wir von eurem Provider geseprrt werden, nutzt den TOR BROWSER oder ändert euren DNS SERVER.

Filmwünsche können bei uns im Forum abgegeben werden

Wir Speichern Nicht




 
 
 
Top Releases
Virunga.2014.German.DL.Doku....
Virunga.2014.German.DL.Doku....
Ungehorsam.2017.German.AC3.D...
Solange.ich.atme.2017.German...
Roman.J.Israel.Esq.Die.Wahrh...
Early.Man.Steinzeit.bereit.2...
Early.Man.Steinzeit.Bereit.2...
A.Beautiful.Day.2017.German....
Early.Man.Steinzeit.bereit.2...
Early.Man.Steinzeit.bereit.2...

Cinedubs
Solo.A.Star.Wars.Story.2018....
Loving.Pablo.2017.German.AC3...
Jurassic.World.2.Das.gefalle...
Ant-Man.and.the.Wasp.TS.LD.G...
I.Feel.Pretty.2018.German.AC...
I.Feel.Pretty.2018.German.AC...
Skyscraper.2018.German.AC3LD...
Jurassic.World.2.Das.gefalle...
Jurassic.World.2.Das.gefalle...
Jurassic.World.2.Das.gefalle...

Neuerscheinungen 2017-18
Heilstaetten.2018.German.AC3...
Heilstaetten.2018.German.AC3...
Early.Man.Steinzeit.bereit.2...
You.Get.Me.2017.German.DL.72...
You.Get.Me.2017.German.DL.10...
Alien.Siege.Angriffsziel.Erd...
Alien.Siege.Angriffsziel.Erd...
Vielmachglas.German.AC3.720p...
Vielmachglas.German.AC3.1080...
Alien.Siege.2018.COMPLETE.BL...

XXX
WickedPictures.Love.Junkies....
AllGirlMassage.18.09.03.Soph...
WildOnCam.18.08.27.Eliza.Iba...
WickedPictures.Love.Junkies....
WankItNow.18.08.10.Amber.Jay...
WankItNow.18.08.08.Ashley.Ja...
WankItNow.18.08.10.Jasmine.L...
WickedPictures.Axel.Brauns.B...
AbbyWinters.18.09.04.Daniela...
Yanks.18.08.26.Amber.Chase.A...
WhippedAss.18.07.05.Bella.Ro...
WildOnCam.18.07.06.Elsa.Jean...
WankItNow.18.08.08.Roxy.R.Do...
Yonitale.18.07.06.Nedda.Y.Do...
Watch4Beauty.18.07.05.Ariela...
WildOnCam.18.07.05.Jay.Taylo...
WebYoung.18.07.06.Lyra.Law.A...
Vixen.18.08.27.Athena.Palomi...
ATKHairy.18.09.03.Andy.Moon....
WankItNow.18.08.09.Beth.Wank...

3D
Avengers.Infinity.War.3D.201...
Avengers.Infinity.War.3D.201...
Rampage.Big.Meets.Bigger.3D....
Rampage.Big.Meets.Bigger.3D....
Rampage.Big.Meets.Bigger.3D....
Winter.Games.3D.2013.DUAL.CO...
Tomb.Raider.3D.2018.German.7...
Rampage.Big.Meets.Bigger.3D....
Rampage.Big.Meets.Bigger.3D....
Tomb.Raider.3D.2018.MULTi.CO...
Pacific.Rim.Uprising.3D.2018...
Ready.Player.One.3D.2018.Ger...
Rampage.-.Big.Meets.Bigger.2...
Ready.Player.One.2018.3D.HOU...
Ready.Player.One.2018.3D.HSB...

Old_Stuff
Den.Himmel.gibts.echt.DL.108...
Vikings.S02.German.DL.1080p....
Be.Kind.Rewind.Abgedreht.200...
Be.Kind.Rewind.Abgedreht.200...
Dracula.The.Dark.Lord.2012.G...
21.2008.German.DL.1080p.BluR...
Achtung.fertig.WK.Swissgerma...
The.Ouija.Exorcism.2015.MULT...
Meine.liebe.Rabenmutter.germ...
Da.Vincis.Demons.S01.Complet...
Eragon.Das.Vermaechtnis.der....
Adele.und.das.Geheimnis.des....
Die.fabelhafte.Welt.der.Amel...
Haus.des.Geldes.S01.German.M...
How.I.Met.Your.Mother.S01.Ge...

Filme
Paris.Die.goldenen.20er.GERM...
52.Pick.Up.1986.German.AC3D....
Macbeth.1971.German.AC3D.DL....
Men.at.Work.German.1990.Germ...
El.Ardor.Der.Krieger.aus.dem...
Palmyra.Aus.Asche.auferstand...
The.Game.of.Love.1995.German...
Madhouse.-.Party.des.Schreck...
Die.Rettung.der.Meisterwerke...
Die.Monuments.Men.von.Timbuk...
Missions.S01.COMPLETE.German...
White.Gold.S01.COMPLETE.Germ...
White.Gold.S01.COMPLETE.Germ...
Salvation.S01.German.DL.Dubb...
Salvation.S01.German.DL.Dubb...
Modern.Family.S08.GERMAN.DUB...
Modern.Family.S08.GERMAN.DUB...
Rapid.Fire.UNCUT.1992.German...
Bad.Boys.1995.German.DL.2160...
Draft.Day.2014.German.AC3.DL...
Early.Man.Steinzeit.bereit.2...
Der.Eiffelturm.Eine.wahre.Ge...
Mr.Nice.Guy.1997.German.1080...
Jean-Claude.Van.Johnson.S01....

 
 
Early.Man.Steinzeit.bereit.2018.German.DTS.DL.1080p.BluRay.x264-CiNEDOME

Jahr: 2018
Genre: Animation, Komödie
Sprache: Deutsch DTS | Englisch DTS
Laufzeit: 1h 28mn
Bitrate: 12.1 Mbps
Format: MKV
Größe: 7.50 GiB
Release:

Beschreibung:

Zu einer Zeit als noch riesige Mammuts und andere urzeitliche Kreaturen die Erde bevölkerten, versucht der Steinzeitmensch Dug gemeinsam mit seinem Wildschweinfreund Hognob seinen Stamm dazu zu bringen, gegen eine völlig neue Bedrohung anzukämpfen – der nächsten Evolutionsstufe in Form des Bronzezeitmenschen, die ihre eigene Überlegenheit ganz unbescheiden jedem unter die Nase reiben. Aber nicht mehr lange!



Complete name                            : cd-earlmaste-1080.mkv
Format                                   : Matroska
Format version                           : Version 2
File size                                : 7.50 GiB
Duration                                 : 1h 28mn
Overall bit rate mode                    : Variable
Overall bit rate                         : 12.1 Mbps
Encoded date                             : UTC 2018-09-10 03:08:28
Writing application                      : mkvmerge v26.0.0 ('In The Game') 64-bit
Writing library                          : libebml v1.3.6 + libmatroska v1.4.9
DURATION                                 : 01:27:01.997000000
NUMBER_OF_FRAMES                         : 1579
NUMBER_OF_BYTES                          : 6006771
_STATISTICS_WRITING_APP                  : mkvmerge v26.0.0 ('In The Game') 64-bit
_STATISTICS_WRITING_DATE_UTC             : 2018-09-10 03:08:28
_STATISTICS_TAGS                         : BPS DURATION NUMBER_OF_FRAMES NUMBER_OF_BYTES

Video
ID                                       : 1
Format                                   : AVC
Format/Info                              : Advanced Video Codec
Format profile                           : [email protected]
Format settings, CABAC                   : Yes
Format settings, ReFrames                : 3 frames
Codec ID                                 : V_MPEG4/ISO/AVC
Duration                                 : 1h 28mn
Bit rate mode                            : Variable
Bit rate                                 : 8 820 Kbps
Maximum bit rate                         : 15.0 Mbps
Width                                    : 1 920 pixels
Height                                   : 1 036 pixels
Display aspect ratio                     : 1.85:1
Frame rate mode                          : Constant
Frame rate                               : 24.000 fps
Color space                              : YUV
Chroma subsampling                       : 4:2:0
Bit depth                                : 8 bits
Scan type                                : Progressive
Bits/(Pixel*Frame)                       : 0.185
Stream size                              : 5.48 GiB (73%)
Writing library                          : x264 core 155 r2901 7d0ff22
Encoding settings                        : cabac=1 / ref=4 / deblock=1:0:0 / analyse=0x3:0x133 / me=umh / subme=9 / psy=1 / psy_rd=1.00:0.00 / mixed_ref=1 / me_range=16 / chroma_me=1 / trellis=2 / 8x8dct=1 / cqm=0 / deadzone=21,11 / fast_pskip=1 / chroma_qp_offset=-2 / threads=12 / lookahead_threads=1 / sliced_threads=0 / slices=4 / nr=0 / decimate=1 / interlaced=0 / bluray_compat=1 / constrained_intra=0 / bframes=3 / b_pyramid=1 / b_adapt=2 / b_bias=0 / direct=3 / weightb=1 / open_gop=1 / weightp=1 / keyint=23 / keyint_min=1 / scenecut=40 / intra_refresh=0 / rc_lookahead=24 / rc=crf / mbtree=1 / crf=18.0 / qcomp=0.60 / qpmin=0 / qpmax=51 / qpstep=4 / vbv_maxrate=15000 / vbv_bufsize=15000 / crf_max=0.0 / nal_hrd=vbr / filler=0 / ip_ratio=1.40 / aq=1:1.00
Default                                  : Yes
Forced                                   : No
Color primaries                          : BT.709
Transfer characteristics                 : BT.709
Matrix coefficients                      : BT.709

Audio #1
ID                                       : 2
Format                                   : DTS
Format/Info                              : Digital Theater Systems
Mode                                     : 16
Format settings, Endianness              : Big
Codec ID                                 : A_DTS
Duration                                 : 1h 28mn
Bit rate mode                            : Constant
Bit rate                                 : 1 509 Kbps
Channel(s)                               : 6 channels
Channel positions                        : Front: L C R, Side: L R, LFE
Sampling rate                            : 48.0 KHz
Bit depth                                : 24 bits
Compression mode                         : Lossy
Stream size                              : 959 MiB (12%)
Language                                 : German
Default                                  : Yes
Forced                                   : No

Audio #2
ID                                       : 3
Format                                   : DTS
Format/Info                              : Digital Theater Systems
Mode                                     : 16
Format settings, Endianness              : Big
Codec ID                                 : A_DTS
Duration                                 : 1h 28mn
Bit rate mode                            : Constant
Bit rate                                 : 1 509 Kbps
Channel(s)                               : 6 channels
Channel positions                        : Front: L C R, Side: L R, LFE
Sampling rate                            : 48.0 KHz
Bit depth                                : 24 bits
Compression mode                         : Lossy
Stream size                              : 959 MiB (12%)
Language                                 : English
Default                                  : No
Forced                                   : No

Text #1
ID                                       : 4
Format                                   : VobSub
Muxing mode                              : zlib
Codec ID                                 : S_VOBSUB
Codec ID/Info                            : The same subtitle format used on DVDs
Language                                 : German
Default                                  : No
Forced                                   : No

Text #2
ID                                       : 5
Format                                   : VobSub
Muxing mode                              : zlib
Codec ID                                 : S_VOBSUB
Codec ID/Info                            : The same subtitle format used on DVDs
Language                                 : English
Default                                  : No
Forced                                   : No


Download:
Share Online Share OnlineShare OnlineShare Online
 

Kommentare